Welcome to FzMovies

The Best destination for Mobile/Tablet Movies


Join our Telegram Channel to get latest updates Join @FzGroup

Follow us on Instagram @FzMovie

Follow us on Twitter to get latest updates Follow @FzGroup
Loading...

If you're using Opera/UC Browser (or other non mainstream browsers) and having trouble browsing the website smoothly, Here is a solution:

Disable the Data Saver/AdBlock in your browser and use the following links:https://t.co/ES3L3Frnt2https://t.co/ecm0fFCPWK

— FzMovies (@FzGroup) November 28, 2018

MobileTVshows - TV shows / cartoons for mobiles in avi and mp4....http://www.mobiletvshows.net


Mediainfo I ll Be Next Door for Christmas

I ll Be Next Door for Christmas (in Hollywood Movies)
File: I_ll_Be_Next_Door_for_Christmas_WEB-DL_high.mp4
File Size: 242 MB


General

Complete name : I_ll_Be_Next_Door_for_Christmas_WEB-DL_high.mp4
Format : MPEG-4
Format profile : Base Media
Codec ID : isom (isom/iso2/avc1/mp41)
File size : 242 MiB
Duration : 1 h 39 min
Overall bit rate mode : Variable
Overall bit rate : 339 kb/s
Movie name : EVO
Writing application : Lavf58.17.101

Video

ID : 1
Format : AVC
Format/Info : Advanced Video Codec
Format profile : [email protected]
Format settings : CABAC / 5 Ref Frames
Format settings, CABAC : Yes
Format settings, ReFrames : 5 frames
Codec ID : avc1
Codec ID/Info : Advanced Video Coding
Duration : 1 h 39 min
Bit rate : 270 kb/s
Width : 640 pixels
Height : 360 pixels
Display aspect ratio : 16:9
Frame rate mode : Constant
Frame rate : 23.976 (24000/1001) FPS
Color space : YUV
Chroma subsampling : 4:2:0
Bit depth : 8 bits
Scan type : Progressive
Bits/(Pixel*Frame) : 0.049
Stream size : 193 MiB (80%)
Writing library : x264 core 157
Encoding settings : cabac=1 / ref=5 / deblock=1:-1:-1 / analyse=0x3:0x113 / me=hex / subme=8 / psy=1 / psy_rd=1.00:0.15 / mixed_ref=1 / me_range=16 / chroma_me=1 / trellis=2 / 8x8dct=1 / cqm=0 / deadzone=21,11 / fast_pskip=1 / chroma_qp_offset=-3 / threads=11 / lookahead_threads=1 / sliced_threads=0 / nr=0 / decimate=1 / interlaced=0 / bluray_compat=0 / constrained_intra=0 / bframes=3 / b_pyramid=2 / b_adapt=1 / b_bias=0 / direct=3 / weightb=1 / open_gop=0 / weightp=2 / keyint=250 / keyint_min=23 / scenecut=40 / intra_refresh=0 / rc_lookahead=50 / rc=2pass / mbtree=1 / bitrate=270 / ratetol=1.0 / qcomp=0.60 / qpmin=0 / qpmax=69 / qpstep=4 / cplxblur=20.0 / qblur=0.5 / ip_ratio=1.40 / aq=1:1.00
Language : English
Menus : 3
Codec configuration box : avcC

Audio

ID : 2
Format : AAC LC SBR
Format/Info : Advanced Audio Codec Low Complexity with Spectral Band Replication
Commercial name : HE-AAC
Format settings : NBC
Codec ID : mp4a-40-5
Duration : 1 h 39 min
Duration_LastFrame : -20 ms
Bit rate mode : Variable
Bit rate : 64.0 kb/s
Maximum bit rate : 96.0 kb/s
Channel(s) : 1 channel
Channel layout : C
Sampling rate : 44.1 kHz
Frame rate : 21.533 FPS (2048 SPF)
Compression mode : Lossy
Stream size : 45.8 MiB (19%)
Language : English
Default : Yes
Alternate group : 1
Menus : 3

Menu #1

ID : 3
Codec ID : text
Duration : 1 h 39 min
Language : English
Bit rate mode : CBR
Menu For : 1,2
00:00:00.000 : 01
00:10:56.114 : 02
00:20:50.541 : 03
00:31:07.241 : 04
00:41:52.010 : 05
00:49:43.231 : 06
00:59:57.762 : 07
01:09:34.629 : 08
01:20:41.754 : 09
01:31:15.304 : 10
01:36:01.297 : 11

Menu #2

00:00:00.000 : 01
00:10:56.114 : 02
00:20:50.541 : 03
00:31:07.241 : 04
00:41:52.010 : 05
00:49:43.231 : 06
00:59:57.762 : 07
01:09:34.629 : 08
01:20:41.754 : 09
01:31:15.304 : 10
01:36:01.297 : 11

Download I ll Be Next Door for Christmas ()

I ll Be Next Door for Christmas (in Hollywood Movies)
File: I_ll_Be_Next_Door_for_Christmas_WEB-DL_high.mp4
File Size: 242 MB
Loading...